Hello Guest!
It looks like you aren't a member already. Without Registration you won't be able to see all the sections, we encourage you to Register here for free!
Results 1 to 3 of 3
  1. #1
    Join Date
    Nov 2011
    Posts
    416
    Thanks
    0
    Thanked 97 Times in 74 Posts

    Cool Sagunthalai 1940




    [FONT="Comic Sans MS"]Sagunthalai 1940[/FONT]

    [FONT="Comic Sans MS"]>: Movie Info :<[/FONT]
    அறிய பழைய படங்களை தேடி எடுப்பது ஒரு தனி சுகம் தான்.
    அதை நண்பர்களிடம் பகிர்ந்து கொள்வது....அலாதி சுகம்.
    [அப்படியாவது ரேசியோ வை கூட்டிவிடலாம் என்ற சுய நலமும் கூட.]

    1940இல் வெளிவந்த இந்த படம், இன்றுவரை பேசப்படுகிறது என்றால் சும்மாவா....?
    பாடல்களாலேயே படம்.

    நம்ம NSKயை இவ்வளவு இளமையாக நான் பார்த்ததில்லை.
    அவரும் துரைராஜும் கொஞ்சநேரம் வந்தாலும்...மனதில் நின்றுவிடுகின்றன ்.



    You can't describe the happiness when you get hold of some rare things which you were

    searching for years ! Such a greatest moment has arrived in my life too ! It will give
    more pleasure to share the same with our dear friends [ there is also something
    selfish in that as I can improve the ratio ! ].

    The film came in the year 1940 which is talked about even today ! That too
    for the songs !


    I have never seen such an yougish NSK ! Though NSK and T S Durairaj feature
    in the movie for a short time still they leave their indelible imprints in our hearts....


    சகுந்தலை’ காலத்தால் அழியாத காவியம்.


    திரைப்பட வரலாற்றில் ‘சகுந்தலை’ திரைப்படத்திற்கு மிகவும் முக்கியமான இடமுண்டு. இதற்குச் சில சிறப்பான காரணங்களும் உண்டு. கர்நாடக இசை மேதைகளான ஜி.என்.பி. என்றழைக்கப்பட்ட ஜி.என்.பாலசுப்ரமணி யம், எம்.எஸ்.சுப்புலக்ஷ ்மி ஜோடியாக நடித்த இந்தப் படத்திற்கு இசையமைத்தவரும் கர்நாடக சங்கீத வித்வான்கள் வரிசையில் மிகவும் பிரபலமாக விளங்கிய துறையூர் ராஜகோபால சர்மா என்பவர்.
    இந்தப்படத்தின் இன்னுமொரு சிறப்புக்குக் காரணம் இப்படத்தின் இயக்குநர் எல்லிஸ்.ஆர்.டங்கன் . எம்.கே.ராதா நடித்த, எம்ஜியாரின் அறிமுகப்படமான சதிலீலாவதி (1936), அமோக வெற்றிப்படமான எம்.கே. தியாகராஜ பாகவதர் நடித்த அம்பிகாபதி (1937), நாதஸ்வர சக்கரவர்த்தி டி.என்.ராஜரத்தினம் நடித்த கவிகாளமேகம் (1940) போன்ற படங்களை இயக்கிப் பெரும் புகழ் பெற்றிருந்த எல்லிஸ்.ஆர்.டங்கன் ஒரு அமெரிக்கர் என்பதும், நமது புராண, இதிகாசக் கதைகளை உள்வாங்கி, அதை நன்றாகப் புரிந்துகொண்டு, அவரைப்போல் சிறப்பாக அக்கதைகளைப் படமாக்கி இயக்கியவர்கள் அவருக்கு நிகராக அக்காலத்தில எவரும் இருந்திருக்கவில் ை.


    சகுந்தலை படத்தை பற்றிய செய்திகளை அனுப்பி உதவிய அண்ணன் அனாமிகருக்கு நன்றி.

    "Sakunthalai" movie is a time classic which one can't forget !


    There is always a place for Sakunthalai in the history of cinema and there are

    valid reasons too ! Yes ! Carnatic music wizards G N Balasubramaniam [GNB]

    and M S Subbulakshmi [MS] paired for the first and last time in this great movie !

    Music for this epic film was composed by yet another jambavan Turaiyur

    Rajagopla Sharma.


    There is also one surprise element in this movie ! The movie was directed by

    none other than the Great American Director Ellis R Duncan ! Duncan besides
    directing Sathi Leelavathi [1936] the first movie of MGR in his film career as an

    actor, along which M K Radha, but also directed the Ambigapathi [1936] with

    M K T Bhagavatar in the lead. Duncan also directed Kavi Kalamegam [1940],
    starred by the King of Nadhaswaram Tiruvaduthurai N Rajarathinam Pillai.

    Nobody could match Duncan, who had ample knowledge in Indian

    epics and puranas. He understood the philosopjy of Indian way of life and we

    could really enjoy the depth and extent of Duncan's knowledge and the love he

    had for the great epics and the puranas. My pranams to Ellis R Duncan for

    giving such wonderful movies ! I think no foreign director has replaced him till to
    day in Indian Cinema !

    [FONT="Comic Sans MS"]>: File Info :<[/FONT]
    Code:
    General
    Complete name                            : Sagunthalai~Xvid.avi
    Format                                   : AVI
    Format/Info                              : Audio Video Interleave
    File size                                : 771 MiB
    Duration                                 : 2h 45mn
    Overall bit rate                         : 653 Kbps
    Writing application                      : Lavf52.31.0
    
    Video
    ID                                       : 0
    Format                                   : MPEG-4 Visual
    Format profile                           : Simple@L3
    Format settings, BVOP                    : No
    Format settings, QPel                    : No
    Format settings, GMC                     : No warppoints
    Format settings, Matrix                  : Default (H.263)
    Codec ID                                 : XVID
    Codec ID/Hint                            : XviD
    Duration                                 : 2h 45mn
    Bit rate                                 : 512 Kbps
    Width                                    : 320 pixels
    Height                                   : 240 pixels
    Display aspect ratio                     : 4:3
    Frame rate                               : 29.970 fps
    Color space                              : YUV
    Chroma subsampling                       : 4:2:0
    Bit depth                                : 8 bits
    Scan type                                : Progressive
    Compression mode                         : Lossy
    Bits/(Pixel*Frame)                       : 0.222
    Stream size                              : 605 MiB (78%)
    Writing library                          : XviD 1.2.1 (UTC 2008-12-04)
    
    Audio
    ID                                       : 1
    Format                                   : MPEG Audio
    Format version                           : Version 1
    Format profile                           : Layer 3
    Mode                                     : Joint stereo
    Mode extension                           : MS Stereo
    Codec ID                                 : 55
    Codec ID/Hint                            : MP3
    Duration                                 : 2h 45mn
    Bit rate mode                            : Constant
    Bit rate                                 : 128 Kbps
    Channel(s)                               : 2 channels
    Sampling rate                            : 44.1 KHz
    Compression mode                         : Lossy
    Stream size                              : 151 MiB (20%)
    Alignment                                : Aligned on interleaves
    Interleave, duration                     : 26 ms (0.78 video frame)
    Writing library                          : LAME3.98.2
    [FONT="Comic Sans MS"]>: Screen Shots :<[/FONT]


    [FONT="Comic Sans MS"]>: Download Links :<[/FONT]

  2. #2
    Join Date
    Sep 2012
    Posts
    1
    Thanks
    0
    Thanked 0 Times in 0 Posts

    Default

    Is there a site where we can watch this movie?
    I don't see any link in this thread for doing so.

  3. #3
    Join Date
    Sep 2012
    Posts
    1
    Thanks
    0
    Thanked 0 Times in 0 Posts

    Default

    hai my new friend say me how to download pathu pathu movie

Similar Threads

  1. Replies: 0
    Last Post: 24-02-2011, 11:28 PM
  2. Replies: 0
    Last Post: 02-05-2010, 07:45 PM

Posting Permissions

  • You may not post new threads
  • You may not post replies
  • You may not post attachments
  • You may not edit your posts
  •  

TamilWire Chat
Tamil Chat
Advertisements

Facebook Fans Page